<?xml version="1.0" standalone="no"?>
<!DOCTYPE svg PUBLIC "-//W3C//DTD SVG 1.1//EN" "http://www.w3.org/Graphics/SVG/1.1/DTD/svg11.dtd" >
<svg xmlns="http://www.w3.org/2000/svg">
<metadata>Generated by IcoMoon</metadata>
<defs>
<font id="icomoon" horiz-adv-x="1024">
<font-face units-per-em="1024" ascent="960" descent="-64" />
<missing-glyph horiz-adv-x="1024" />
<glyph unicode="&#x20;" horiz-adv-x="512" d="" />
<glyph unicode="&#xb8fd;" glyph-name="cog" d="M201.728 640l-88.064 146.432 72.704 72.704 146.432-88.064c26.624 15.36 56.32 27.648 87.040 35.84l40.96 165.888h102.4l40.96-165.888c30.72-8.192 60.416-20.48 87.040-35.84l146.432 88.064 72.704-72.704-88.064-146.432c15.36-26.624 27.648-56.32 35.84-87.040l165.888-40.96v-102.4l-165.888-40.96c-8.192-30.72-20.48-60.416-35.84-87.040l88.064-146.432-72.704-72.704-146.432 88.064c-26.624-15.36-56.32-27.648-87.040-35.84l-40.96-165.888h-102.4l-40.96 165.888c-30.72 8.192-60.416 20.48-87.040 35.84l-146.432-88.064-72.704 72.704 88.064 146.432c-15.36 26.624-27.648 56.32-35.84 87.040l-165.888 40.96v102.4l165.888 40.96c8.192 30.72 20.48 60.416 35.84 87.040zM512 307.2c84.831 0 153.6 68.769 153.6 153.6s-68.769 153.6-153.6 153.6v0c-84.831 0-153.6-68.769-153.6-153.6s68.769-153.6 153.6-153.6v0z" />
<glyph unicode="&#xb900;" glyph-name="notch" d="M512-64c-136.76 0-265.334 53.258-362.040 149.96-96.702 96.706-149.96 225.28-149.96 362.040 0 96.838 27.182 191.134 78.606 272.692 50 79.296 120.664 143.372 204.356 185.3l43-85.832c-68.038-34.084-125.492-86.186-166.15-150.67-41.746-66.208-63.812-142.798-63.812-221.49 0-229.382 186.618-416 416-416s416 186.618 416 416c0 78.692-22.066 155.282-63.81 221.49-40.66 64.484-98.114 116.584-166.15 150.67l43 85.832c83.692-41.928 154.358-106.004 204.356-185.3 51.422-81.558 78.604-175.854 78.604-272.692 0-136.76-53.258-265.334-149.96-362.040-96.706-96.702-225.28-149.96-362.040-149.96z" />
<glyph unicode="&#xb901;" glyph-name="menu" d="M0 819.2h1024v-102.4h-1024v102.4zM0 512h1024v-102.4h-1024v102.4zM0 204.8h1024v-102.4h-1024v102.4z" />
<glyph unicode="&#xb903;" glyph-name="notebook" d="M126.223 392.881h73.483v-36.741h-73.483v36.741zM126.223 539.847h73.483v-36.741h-73.483v36.741zM126.223 245.919h73.483v-36.741h-73.483v36.741zM126.223 98.957h73.483v-36.741h-73.483v36.741zM126.223 686.809h73.483v-36.741h-73.483v36.741zM126.223 833.771h73.483v-36.741h-73.483v36.741zM824.412 943.995h-551.341c-40.531 0-73.365-32.952-73.365-73.711v-36.511h73.483v-36.741h-73.483v-110.221h73.483v-36.741h-73.483v-110.221h73.483v-36.741h-73.483v-110.221h73.483v-36.741h-73.483v-110.221h73.483v-36.741h-73.483v-110.221h73.483v-36.741h-73.483v-36.511c0-40.759 32.721-73.711 73.365-73.711h551.341c40.531 0 73.365 32.952 73.365 73.711v844.579c0 40.645-32.721 73.711-73.365 73.711zM714.075 576.585h-330.665v36.741h330.665v-36.741zM750.816 723.55h-404.148v36.741h404.148v-36.741z" />
<glyph unicode="&#xb904;" glyph-name="pdf" horiz-adv-x="878" d="M839 733.714c21.143-21.143 38.857-63.429 38.857-93.714v-658.286c0-30.286-24.571-54.857-54.857-54.857h-768c-30.286 0-54.857 24.571-54.857 54.857v914.286c0 30.286 24.571 54.857 54.857 54.857h512c30.286 0 72.571-17.714 93.714-38.857zM585.286 873.143v-214.857h214.857c-3.429 9.714-8.571 19.429-12.571 23.429l-178.857 178.857c-4 4-13.714 9.143-23.429 12.571zM804.714 0v585.143h-237.714c-30.286 0-54.857 24.571-54.857 54.857v237.714h-438.857v-877.714h731.429zM511 338.857c14.286-11.429 30.286-21.714 48-32 24 2.857 46.286 4 66.857 4 38.286 0 86.857-4.571 101.143-28 4-5.714 7.429-16 1.143-29.714-0.571-0.571-1.143-1.714-1.714-2.286v-0.571c-1.714-10.286-10.286-21.714-40.571-21.714-36.571 0-92 16.571-140 41.714-79.429-8.571-162.857-26.286-224-47.429-58.857-100.571-104-149.714-138.286-149.714-5.714 0-10.857 1.143-16 4l-13.714 6.857c-1.714 0.571-2.286 1.714-3.429 2.857-2.857 2.857-5.143 9.143-3.429 20.571 5.714 26.286 36.571 70.286 107.429 107.429 4.571 2.857 10.286 1.143 13.143-3.429 0.571-0.571 1.143-1.714 1.143-2.286 17.714 29.143 38.286 66.286 61.143 112.571 25.714 51.429 45.714 101.714 59.429 149.714-18.286 62.286-24 126.286-13.714 164 4 14.286 12.571 22.857 24 22.857h12.571c8.571 0 15.429-2.857 20-8.571 6.857-8 8.571-20.571 5.143-38.857-0.571-1.714-1.143-3.429-2.286-4.571 0.571-1.714 0.571-2.857 0.571-4.571v-17.143c-0.571-36-1.143-70.286-8-109.714 20-60 49.714-108.571 83.429-136zM181.857 104c17.143 8 41.714 32.571 78.286 90.286-42.857-33.143-69.714-70.857-78.286-90.286zM409.286 629.714c-5.714-16-5.714-43.429-1.143-75.429 1.714 9.143 2.857 17.714 4 25.143 1.143 9.714 2.857 17.714 4 24.571 0.571 1.714 1.143 2.857 2.286 4.571-0.571 0.571-0.571 1.714-1.143 2.857-0.571 10.286-4 16.571-7.429 20.571 0-1.143-0.571-1.714-0.571-2.286zM338.429 252c50.286 20 106.286 36 162.286 46.286-5.714 4.571-11.429 8.571-16.571 13.143-28 24.571-53.143 58.857-72.571 100.571-10.857-34.857-26.857-72-47.429-112.571-8.571-16-17.143-32-25.714-47.429zM707.572 261.143c-2.857 2.857-17.714 13.714-80 13.714 28-10.286 53.714-16 70.857-16 5.143 0 8 0 10.286 0.571 0 0.571-0.571 1.143-1.143 1.714z" />
<glyph unicode="&#xb905;" glyph-name="chevron-right" horiz-adv-x="597" d="M124.873-63.916l438.85 438.85c28.603 28.603 28.603 74.901 0 103.421l-438.85 438.85c-28.603 28.603-74.901 28.603-103.421 0s-28.603-74.901 0-103.421l387.145-387.145-387.145-387.145c-28.603-28.603-28.603-74.901 0-103.421s74.901-28.603 103.421 0z" />
<glyph unicode="&#xb906;" glyph-name="chevron-left" horiz-adv-x="597" d="M563.722 39.538l-387.142 387.142 387.142 387.142c28.599 28.599 28.599 74.898 0 103.424s-74.898 28.599-103.424 0l-438.853-438.853c-28.599-28.599-28.599-74.898 0-103.424l438.853-438.853c28.599-28.599 74.898-28.599 103.424 0s28.599 74.898 0 103.424z" />
<glyph unicode="&#xb907;" glyph-name="pencil1" d="M965.536 718.656l-10.048-10.048-183.232 183.328 10.016 10.016c0 0 43.872 58.016 106.272 58.016 27.488 0 58.624-11.296 91.168-43.84 107.328-107.328-14.176-197.472-14.176-197.472zM895.328 648.416l-623.968-624.192-271.36-88.224 88.192 271.52v0.096h0.064l623.872 624.16 8.064-8.096zM88.32 24.352l135.584 39.008-92.608 98.624-42.976-137.632z" />
<glyph unicode="&#xb908;" glyph-name="addnote" horiz-adv-x="853" d="M678.911 659.394h-120.367v120.367zM824.18 645.756l-279.273 279.273c-4.282 4.282-9.403 7.727-15.081 10.101s-11.776 3.538-17.827 3.538h-372.363c-38.54 0-73.541-15.686-98.723-40.913s-40.913-60.183-40.913-98.723v-744.727c0-38.54 15.686-73.541 40.913-98.723s60.183-40.913 98.723-40.913h558.545c38.54 0 73.541 15.686 98.723 40.913s40.913 60.183 40.913 98.723v558.545c0 12.847-5.213 24.483-13.637 32.907zM465.454 845.576v-232.727c0-25.693 20.853-46.546 46.546-46.546h232.727v-511.999c0-12.847-5.167-24.436-13.637-32.907s-20.061-13.637-32.907-13.637h-558.545c-12.847 0-24.436 5.167-32.907 13.637s-13.637 20.061-13.637 32.907v744.727c0 12.847 5.167 24.436 13.637 32.907s20.061 13.637 32.907 13.637zM279.272 240.485h93.091v-93.091c0-25.693 20.853-46.546 46.546-46.546s46.546 20.853 46.546 46.546v93.091h93.091c25.693 0 46.546 20.853 46.546 46.546s-20.853 46.546-46.546 46.546h-93.091v93.091c0 25.693-20.853 46.546-46.546 46.546s-46.546-20.853-46.546-46.546v-93.091h-93.091c-25.693 0-46.546-20.853-46.546-46.546s20.853-46.546 46.546-46.546z" />
<glyph unicode="&#xb909;" glyph-name="edit" d="M292.938 369.276l-96.355-247.318 243.040 100.624-146.69 146.69zM998.421 897.492l-30.842 30.842c-34.023 34.068-89.285 34.068-123.356 0l-61.673-61.673 154.188-154.236 61.673 61.673c34.107 34.068 34.107 89.335 0 123.394zM297.823 381.877l22.072 22.072 154.188-154.188 431.818 431.818-154.188 154.188 30.842 30.88-484.731-484.777zM830.444 29.179l-742.646-0.266 0.133 742.646 519.97 0.174 81.48 86.364h-645.772c-24.077 0-43.617-19.493-43.617-43.617v-828.745c0-24.12 19.541-43.617 43.617-43.617h828.745c24.12 0 43.617 19.493 43.617 43.617v613.184l-87.888-86.237 2.356-483.511z" />
<glyph unicode="&#xb90a;" glyph-name="zoomout" d="M684.416 262.144c-1.451-1.109-2.859-2.347-4.224-3.712s-2.56-2.731-3.712-4.224c-53.675-51.755-126.677-83.541-207.147-83.541-82.475 0-157.099 33.365-211.2 87.467s-87.467 128.725-87.467 211.2 33.365 157.099 87.467 211.2 128.725 87.467 211.2 87.467 157.099-33.365 211.2-87.467 87.467-128.725 87.467-211.2c0-80.469-31.787-153.472-83.584-207.189zM926.165 72.832l-156.8 156.8c52.523 65.707 83.968 149.035 83.968 239.701 0 106.027-43.008 202.069-112.469 271.531s-165.504 112.469-271.531 112.469-202.069-43.008-271.531-112.469-112.469-165.504-112.469-271.531 43.008-202.069 112.469-271.531 165.504-112.469 271.531-112.469c90.667 0 173.995 31.445 239.701 83.968l156.8-156.8c16.683-16.683 43.691-16.683 60.331 0s16.683 43.691 0 60.331zM341.333 426.667h256c23.552 0 42.667 19.115 42.667 42.667s-19.115 42.667-42.667 42.667h-256c-23.552 0-42.667-19.115-42.667-42.667s19.115-42.667 42.667-42.667z" />
<glyph unicode="&#xb90b;" glyph-name="zoomin" d="M684.416 262.144c-1.451-1.109-2.859-2.347-4.224-3.712s-2.56-2.731-3.712-4.224c-53.675-51.755-126.677-83.541-207.147-83.541-82.475 0-157.099 33.365-211.2 87.467s-87.467 128.725-87.467 211.2 33.365 157.099 87.467 211.2 128.725 87.467 211.2 87.467 157.099-33.365 211.2-87.467 87.467-128.725 87.467-211.2c0-80.469-31.787-153.472-83.584-207.189zM926.165 72.832l-156.8 156.8c52.523 65.707 83.968 149.035 83.968 239.701 0 106.027-43.008 202.069-112.469 271.531s-165.504 112.469-271.531 112.469-202.069-43.008-271.531-112.469-112.469-165.504-112.469-271.531 43.008-202.069 112.469-271.531 165.504-112.469 271.531-112.469c90.667 0 173.995 31.445 239.701 83.968l156.8-156.8c16.683-16.683 43.691-16.683 60.331 0s16.683 43.691 0 60.331zM341.333 426.667h85.333v-85.333c0-23.552 19.115-42.667 42.667-42.667s42.667 19.115 42.667 42.667v85.333h85.333c23.552 0 42.667 19.115 42.667 42.667s-19.115 42.667-42.667 42.667h-85.333v85.333c0 23.552-19.115 42.667-42.667 42.667s-42.667-19.115-42.667-42.667v-85.333h-85.333c-23.552 0-42.667-19.115-42.667-42.667s19.115-42.667 42.667-42.667z" />
<glyph unicode="&#xb90c;" glyph-name="book" d="M896 832v-832h-672c-53.026 0-96 42.98-96 96s42.974 96 96 96h608v768h-640c-70.398 0-128-57.6-128-128v-768c0-70.4 57.602-128 128-128h768v896h-64zM224.056 128v0c-0.018-0.002-0.038 0-0.056 0-17.672 0-32-14.326-32-32s14.328-32 32-32c0.018 0 0.038 0.002 0.056 0.002v-0.002h607.89v64h-607.89z" />
<glyph unicode="&#xb90d;" glyph-name="books" horiz-adv-x="1152" d="M224 832h-192c-17.6 0-32-14.4-32-32v-704c0-17.6 14.4-32 32-32h192c17.6 0 32 14.4 32 32v704c0 17.6-14.4 32-32 32zM192 640h-128v64h128v-64zM544 832h-192c-17.6 0-32-14.4-32-32v-704c0-17.6 14.4-32 32-32h192c17.6 0 32 14.4 32 32v704c0 17.6-14.4 32-32 32zM512 640h-128v64h128v-64zM765.088 782.52l-171.464-86.394c-15.716-7.918-22.096-27.258-14.178-42.976l287.978-571.548c7.918-15.718 27.258-22.098 42.976-14.178l171.464 86.392c15.716 7.92 22.096 27.26 14.178 42.974l-287.978 571.55c-7.92 15.718-27.26 22.1-42.976 14.18z" />
<glyph unicode="&#xb90e;" glyph-name="book-open" d="M896 768v-554.667h-256c-31.061 0-60.245-8.32-85.333-22.827v449.493c0 35.371 14.293 67.285 37.504 90.496s55.125 37.504 90.496 37.504zM469.333 190.507c-25.088 14.507-54.272 22.827-85.333 22.827h-256v554.667h213.333c35.371 0 67.285-14.293 90.496-37.504s37.504-55.125 37.504-90.496zM938.667 853.334h-256c-58.88 0-112.299-23.936-150.869-62.464-7.125-7.125-13.739-14.763-19.797-22.869-6.059 8.107-12.672 15.744-19.797 22.869-38.571 38.528-91.989 62.464-150.869 62.464h-256c-23.552 0-42.667-19.115-42.667-42.667v-640c0-23.552 19.115-42.667 42.667-42.667h298.667c23.595 0 44.843-9.515 60.331-25.003s25.003-36.736 25.003-60.331c0-23.552 19.115-42.667 42.667-42.667s42.667 19.115 42.667 42.667c0 23.595 9.515 44.843 25.003 60.331s36.736 25.003 60.331 25.003h298.667c23.552 0 42.667 19.115 42.667 42.667v640c0 23.552-19.115 42.667-42.667 42.667z" />
<glyph unicode="&#xb90f;" glyph-name="globe" d="M512 952.32c-271.104 0-491.571-220.518-491.571-491.52s220.467-491.52 491.571-491.52c271.002 0 491.52 220.518 491.52 491.52s-220.518 491.52-491.52 491.52zM931.226 460.8c0-95.898-32.563-184.32-86.835-254.976-15.36 11.981-31.693 44.39-16.333 77.978 15.514 33.792 19.558 112.026 15.974 142.49-3.379 30.413-19.2 103.68-62.157 104.397-42.906 0.614-72.346 14.797-97.843 65.69-52.89 105.882 99.277 126.208 46.387 184.781-14.797 16.486-91.29-67.686-102.502 44.493-0.717 8.038 6.912 20.070 17.203 32.563 166.093-55.808 286.106-212.838 286.106-397.414zM454.4 875.878c-10.035-19.558-36.506-27.494-52.582-42.189-35.021-31.693-50.074-27.29-68.915-57.702-18.995-30.413-80.23-74.189-80.23-96.205s30.925-47.923 46.387-42.906c15.462 5.12 56.269 4.813 80.23-3.584 24.013-8.499 200.397-16.998 144.179-166.093-17.818-47.411-95.898-39.424-116.685-117.914-3.123-11.52-13.926-60.723-14.592-76.8-1.28-24.883 17.613-118.682-6.4-118.682-24.115 0-88.986 83.917-88.986 99.123s-16.794 68.506-16.794 114.176c0 45.619-77.722 44.902-77.722 105.574 0 54.682 42.138 81.92 32.666 108.186-9.267 26.112-83.302 26.982-114.176 30.208 53.914 139.827 180.736 243.61 333.619 264.806zM380.109 62.976c25.19 13.312 27.75 30.515 50.586 31.386 26.112 1.178 47.36 10.189 76.8 16.691 26.112 5.683 72.858 32.205 113.971 35.584 34.714 2.816 103.168-1.792 121.6-35.277-66.304-44.083-145.818-69.786-231.117-69.786-46.029 0-90.368 7.629-131.84 21.402z" />
<glyph unicode="&#xb910;" glyph-name="book2" horiz-adv-x="896" d="M128 938.667c-70.4 0-128-57.6-128-128v-768c0-70.4 57.6-128 128-128h768v1024h-768zM768 42.667h-512v768h128v-256l128 128 128-128v256h128v-768z" />
<glyph unicode="&#xb911;" glyph-name="info" d="M512 952.32c-271.514 0-491.571-220.058-491.571-491.52 0-271.514 220.058-491.571 491.571-491.571 271.411 0 491.52 220.058 491.52 491.571 0 271.462-220.109 491.52-491.52 491.52zM557.875 774.861c47.923 0 62.003-27.802 62.003-59.597 0-39.68-31.744-76.39-85.965-76.39-45.363 0-66.97 22.784-65.638 60.518 0 31.795 26.573 75.469 89.6 75.469zM435.098 166.4c-32.768 0-56.678 19.917-33.792 107.213l37.53 154.88c6.502 24.781 7.578 34.714 0 34.714-9.779 0-52.326-17.101-77.414-33.997l-16.333 26.778c79.616 66.509 171.162 105.523 210.33 105.523 32.768 0 38.195-38.707 21.862-98.304l-43.008-162.816c-7.629-28.774-4.352-38.707 3.277-38.707 9.83 0 41.984 11.878 73.626 36.813l18.534-24.883c-77.466-77.414-161.894-107.213-194.611-107.213z" />
<glyph unicode="&#xb912;" glyph-name="eye" d="M512 832c-282.752 0-512-379.008-512-379.008s229.248-388.992 512-388.992 512 388.992 512 388.992-229.248 379.008-512 379.008zM512 192c-141.376 0-256 114.624-256 256s114.624 256 256 256 256-114.624 256-256-114.624-256-256-256zM384 448c0 70.692 57.308 128 128 128s128-57.308 128-128c0-70.692-57.308-128-128-128s-128 57.308-128 128z" />
<glyph unicode="&#xb913;" glyph-name="search" d="M1014.88 33.504c12.192-12.192 12.192-31.968 0-44.192l-44.192-44.192c-12.224-12.192-32-12.192-44.192 0l-309.376 309.376c-3.36 3.36-5.6 7.328-7.104 11.552-63.456-46.368-141.376-74.048-226.016-74.048-212.064 0-384 171.936-384 384s171.936 384 384 384c212.064 0 384-171.936 384-384 0-84.64-27.68-162.56-74.048-226.016 4.224-1.504 8.192-3.712 11.552-7.104l309.376-309.376zM384 832c-141.376 0-256-114.624-256-256s114.624-256 256-256 256 114.624 256 256c0 141.376-114.624 256-256 256z" />
<glyph unicode="&#xb914;" glyph-name="print" d="M256 896h512v-128h-512v128zM960 704h-896c-35.2 0-64-28.8-64-64v-320c0-35.2 28.794-64 64-64h192v-256h512v256h192c35.2 0 64 28.8 64 64v320c0 35.2-28.8 64-64 64zM128 512c-35.346 0-64 28.654-64 64s28.654 64 64 64 64-28.654 64-64-28.652-64-64-64zM704 64h-384v320h384v-320z" />
<glyph unicode="&#xb915;" glyph-name="box2" d="M618.965 537.387l-106.965-61.867-297.003 171.819 107.136 61.227zM809.003 647.339l-104.789-60.629-296.277 170.88 82.517 47.147c4.779 2.731 9.899 4.48 15.147 5.291 9.301 1.451 18.987-0.128 27.904-5.291zM491.776-41.002c6.016-3.243 12.928-5.077 20.224-5.077 7.381 0 14.336 1.877 20.395 5.163 15.189 2.475 29.909 7.68 43.392 15.36l298.709 170.709c26.368 15.232 45.227 38.272 55.424 64.597 5.675 14.592 8.619 30.165 8.747 46.251v341.333c0 20.395-4.821 39.723-13.397 56.917-0.939 3.029-2.219 5.973-3.883 8.832-1.963 3.371-4.267 6.357-6.912 8.96-1.323 1.835-2.731 3.669-4.139 5.419-9.813 12.203-21.845 22.528-35.456 30.507l-299.051 170.88c-26.027 15.019-55.467 19.84-83.371 15.531-15.488-2.432-30.507-7.637-44.245-15.488l-136.491-77.995c-8.96-1.749-17.323-6.4-23.595-13.483l-138.624-79.232c-16.341-9.429-29.824-21.888-40.149-36.267-2.56-2.56-4.864-5.547-6.784-8.832-1.664-2.901-2.987-5.888-3.925-8.96-1.707-3.413-3.243-6.955-4.608-10.496-5.632-14.635-8.576-30.208-8.704-45.995v-341.632c0.043-30.293 10.581-58.155 28.331-80.128 9.813-12.203 21.845-22.528 35.456-30.507l299.051-170.88c13.824-7.979 28.587-13.099 43.605-15.445zM469.333 401.622v-340.949l-277.12 158.336c-4.736 2.773-8.832 6.315-12.16 10.453-5.931 7.339-9.387 16.469-9.387 26.539v318.379zM554.667 60.672v340.949l298.667 172.757v-318.379c-0.043-5.163-1.067-10.496-2.987-15.445-3.413-8.789-9.6-16.384-18.176-21.333z" />
<glyph unicode="&#xb916;" glyph-name="check" d="M864 832l-480-480-224 224-160-160 384-384 640 640z" />
<glyph unicode="&#xb917;" glyph-name="media" horiz-adv-x="1152" d="M1088 832h-64v64c0 35.2-28.8 64-64 64h-896c-35.2 0-64-28.8-64-64v-768c0-35.2 28.8-64 64-64h64v-64c0-35.2 28.8-64 64-64h896c35.2 0 64 28.8 64 64v768c0 35.2-28.8 64-64 64zM128 768v-640h-63.886c-0.040 0.034-0.082 0.076-0.114 0.116v767.77c0.034 0.040 0.076 0.082 0.114 0.114h895.77c0.040-0.034 0.082-0.076 0.116-0.116v-63.884h-768c-35.2 0-64-28.8-64-64v0zM1088 0.116c-0.034-0.040-0.076-0.082-0.116-0.116h-895.77c-0.040 0.034-0.082 0.076-0.114 0.116v767.77c0.034 0.040 0.076 0.082 0.114 0.114h895.77c0.040-0.034 0.082-0.076 0.116-0.116v-767.768zM960 608c0-53.020-42.98-96-96-96s-96 42.98-96 96 42.98 96 96 96 96-42.98 96-96zM1024 64h-768v128l224 384 256-320h64l224 192z" />
<glyph unicode="&#xb918;" glyph-name="lock" d="M928-64h-832c-17.664 0-32 14.304-32 32v512c0 17.696 14.336 32 32 32h96v128c0 176.736 143.264 320 320 320s320-143.264 320-320v-128h96c17.696 0 32-14.304 32-32v-512c0-17.696-14.304-32-32-32zM704 656c0 97.216-85.984 176-192 176s-192-78.784-192-176v-144h384v144z" />
<glyph unicode="&#xb919;" glyph-name="redo" d="M576 711.628v248.372l384-384-384-384v253.824c-446.75 10.482-427.588-303.792-313.86-509.824-280.712 303.414-221.1 789.57 313.86 775.628z" />
<glyph unicode="&#xb91a;" glyph-name="external-link" d="M725.333 384v-256c0-11.776-4.736-22.4-12.501-30.165s-18.389-12.501-30.165-12.501h-469.333c-11.776 0-22.4 4.736-30.165 12.501s-12.501 18.389-12.501 30.165v469.333c0 11.776 4.736 22.4 12.501 30.165s18.389 12.501 30.165 12.501h256c23.552 0 42.667 19.115 42.667 42.667s-19.115 42.667-42.667 42.667h-256c-35.328 0-67.413-14.379-90.496-37.504s-37.504-55.168-37.504-90.496v-469.333c0-35.328 14.379-67.413 37.504-90.496s55.168-37.504 90.496-37.504h469.333c35.328 0 67.413 14.379 90.496 37.504s37.504 55.168 37.504 90.496v256c0 23.552-19.115 42.667-42.667 42.667s-42.667-19.115-42.667-42.667zM456.832 311.168l396.501 396.501v-153.003c0-23.552 19.115-42.667 42.667-42.667s42.667 19.115 42.667 42.667v256c0 5.803-1.152 11.307-3.243 16.341s-5.163 9.728-9.216 13.781c-0.043 0.043-0.043 0.043-0.085 0.085-3.925 3.925-8.619 7.083-13.781 9.216-5.035 2.091-10.539 3.243-16.341 3.243h-256c-23.552 0-42.667-19.115-42.667-42.667s19.115-42.667 42.667-42.667h153.003l-396.501-396.501c-16.683-16.683-16.683-43.691 0-60.331s43.691-16.683 60.331 0z" />
<glyph unicode="&#xb91b;" glyph-name="chapters" d="M113.039 139.637v-119.688c0-10.597-9.35-19.948-19.948-19.948h-119.688c-10.597 0-19.948 9.35-19.948 19.948v119.688c0 10.597 9.35 19.948 19.948 19.948h119.688c10.597 0 19.948-9.35 19.948-19.948zM113.039 379.013v-119.688c0-10.597-9.35-19.948-19.948-19.948h-119.688c-10.597 0-19.948 9.35-19.948 19.948v119.688c0 10.597 9.35 19.948 19.948 19.948h119.688c10.597 0 19.948-9.35 19.948-19.948zM113.039 618.39v-119.688c0-10.597-9.35-19.948-19.948-19.948h-119.688c-10.597 0-19.948 9.35-19.948 19.948v119.688c0 10.597 9.35 19.948 19.948 19.948h119.688c10.597 0 19.948-9.35 19.948-19.948zM1070.545 139.637v-119.688c0-10.597-9.35-19.948-19.948-19.948h-837.818c-10.597 0-19.948 9.35-19.948 19.948v119.688c0 10.597 9.35 19.948 19.948 19.948h837.818c10.597 0 19.948-9.35 19.948-19.948zM113.039 857.766v-119.688c0-10.597-9.35-19.948-19.948-19.948h-119.688c-10.597 0-19.948 9.35-19.948 19.948v119.688c0 10.597 9.35 19.948 19.948 19.948h119.688c10.597 0 19.948-9.35 19.948-19.948zM1070.545 379.013v-119.688c0-10.597-9.35-19.948-19.948-19.948h-837.818c-10.597 0-19.948 9.35-19.948 19.948v119.688c0 10.597 9.35 19.948 19.948 19.948h837.818c10.597 0 19.948-9.35 19.948-19.948zM1070.545 618.39v-119.688c0-10.597-9.35-19.948-19.948-19.948h-837.818c-10.597 0-19.948 9.35-19.948 19.948v119.688c0 10.597 9.35 19.948 19.948 19.948h837.818c10.597 0 19.948-9.35 19.948-19.948zM1070.545 857.766v-119.688c0-10.597-9.35-19.948-19.948-19.948h-837.818c-10.597 0-19.948 9.35-19.948 19.948v119.688c0 10.597 9.35 19.948 19.948 19.948h837.818c10.597 0 19.948-9.35 19.948-19.948z" />
<glyph unicode="&#xb91c;" glyph-name="wikipedia" d="M515.848 587.458c-39.936-82.432-94.592-194.051-121.728-244.397-26.283-45.824-48.086-39.723-65.365-1.237-59.991 141.696-183.17 390.148-241.113 529.458-10.709 25.643-18.818 42.111-26.412 48.597-7.724 6.399-23.636 10.241-47.873 11.563-8.961 1.024-13.356 3.199-13.356 6.783v19.412l2.22 1.92c39.426 0.213 230.446 0 230.446 0l2.175-1.92v-18.517c0-5.077-3.199-7.51-9.601-7.51l-24.066-1.322c-20.692-1.237-31.020-6.996-31.020-18.605 0-5.759 2.262-14.080 7.084-25.643 46.166-112.896 205.569-448.902 205.569-448.902l5.804-1.962 102.871 205.23-20.566 45.527-70.743 139.266c0 0-13.57 27.905-18.262 37.205-31.062 61.568-30.381 64.768-61.74 68.991-8.832 0.982-13.356 2.133-13.356 6.356v19.968l2.559 1.92h183.128l4.821-1.581v-19.244c0-4.479-3.241-6.399-9.685-6.399l-13.143-2.007c-33.793-2.602-28.202-16.255-5.804-60.673l67.499-138.752 75.009 149.507c12.5 27.307 9.94 34.177 4.738 40.404-2.986 3.584-13.013 9.388-34.646 10.241l-8.577 0.895c-2.22 0-4.181 0.64-6.185 2.175-1.92 1.322-2.86 3.241-2.86 5.503v18.22l2.602 1.92c53.205 0.342 172.503 0 172.503 0l2.517-1.92v-18.605c0-5.164-2.517-7.594-8.234-7.594-27.563-1.28-33.366-4.052-43.649-18.731-5.119-7.937-16-25.132-27.563-44.331l-98.176-182.318-2.772-5.759 119.126-243.714 7.251-2.049 187.566 445.36c6.57 18.006 5.503 30.807-2.731 38.188-8.405 7.339-14.762 11.647-36.565 12.587l-17.919 0.682c-2.602 0-4.479 0.598-6.486 1.92-1.836 1.237-3.073 3.199-3.073 5.077v18.605l2.517 1.92h211.67l1.748-1.92v-18.646c0-5.077-3.157-7.682-8.916-7.682-27.65-1.28-48.086-7.682-61.568-17.965-13.398-10.881-23.765-26.283-31.405-45.527 0 0-172.503-395.012-231.512-526.471-22.402-42.964-44.929-39.125-64.128 1.322-24.363 49.964-75.649 161.538-112.896 243.631z" />
<glyph unicode="&#xb91d;" glyph-name="tts" d="M0 256c0-47.146 38.186-85.334 85.334-85.334h128v-131.626c0-23.68 19.2-42.666 42.666-42.666 11.968 0 22.806 4.906 30.506 12.8l161.494 161.492h469.334c47.146 0 85.334 38.186 85.334 85.334l-0.002 533.334c0 47.146-38.186 85.334-85.334 85.334l-831.998-0.002c-47.148 0-85.334-38.186-85.334-85.332v-533.334zM256 501.334c0 29.44 23.894 53.334 53.334 53.334s53.334-23.894 53.334-53.334-23.894-53.334-53.334-53.334-53.334 23.894-53.334 53.334zM448 501.334c0 29.44 23.894 53.334 53.334 53.334s53.334-23.894 53.334-53.334-23.894-53.334-53.334-53.334-53.334 23.894-53.334 53.334zM640 501.334c0 29.44 23.894 53.334 53.334 53.334s53.334-23.894 53.334-53.334-23.894-53.334-53.334-53.334-53.334 23.894-53.334 53.334z" />
<glyph unicode="&#xb91e;" glyph-name="copy" d="M810 42.667v598h-468v-598h468zM810 724.667q34 0 60-25t26-59v-598q0-34-26-60t-60-26h-468q-34 0-60 26t-26 60v598q0 34 26 59t60 25h468zM682 896.667v-86h-512v-598h-84v598q0 34 25 60t59 26h512z" />
<glyph unicode="&#xb91f;" glyph-name="google" d="M522.2 521.2v-175.6h290.4c-11.8-75.4-87.8-220.8-290.4-220.8-174.8 0-317.4 144.8-317.4 323.2s142.6 323.2 317.4 323.2c99.4 0 166-42.4 204-79l139 133.8c-89.2 83.6-204.8 134-343 134-283 0-512-229-512-512s229-512 512-512c295.4 0 491.6 207.8 491.6 500.2 0 33.6-3.6 59.2-8 84.8l-483.6 0.2z" />
<glyph unicode="&#xb920;" glyph-name="play-circle" horiz-adv-x="878" d="M439 877.714c242.286 0 438.857-196.571 438.857-438.857s-196.571-438.857-438.857-438.857-438.857 196.571-438.857 438.857 196.571 438.857 438.857 438.857zM658.429 407.428c11.429 6.286 18.286 18.286 18.286 31.429s-6.857 25.143-18.286 31.429l-310.857 182.857c-10.857 6.857-25.143 6.857-36.571 0.571-11.429-6.857-18.286-18.857-18.286-32v-365.714c0-13.143 6.857-25.143 18.286-32 5.714-2.857 12-4.571 18.286-4.571s12.571 1.714 18.286 5.143z" />
<glyph unicode="&#xb921;" glyph-name="book-reference" d="M307.2 768h-51.2c-28.277 0-51.2 22.923-51.2 51.2s22.923 51.2 51.2 51.2v0h563.2v51.2c0 28.277-22.923 51.2-51.2 51.2v0h-563.2c-56.554 0-102.4-45.846-102.4-102.4v0-819.2c0-56.32 46.080-102.4 102.4-102.4h614.4c56.554 0 102.4 45.846 102.4 102.4v0 665.6c0 28.277-22.923 51.2-51.2 51.2v0h-358.4v-409.6l-102.4 102.4-102.4-102.4v409.6z" />
<glyph unicode="&#xb922;" glyph-name="chevron-thin-right" d="M642.568 460.738l-340.103 353.391c-12.763 12.858-12.763 33.672 0 46.628 12.763 12.858 33.385 12.858 46.152 0l372.919-376.632c12.763-12.905 12.763-33.768 0-46.628l-372.919-376.632c-12.763-12.905-33.385-12.858-46.152 0-12.763 12.811-12.763 33.672 0 46.628l340.103 353.248z" />
<glyph unicode="&#xb923;" glyph-name="chevron-thin-left" d="M721.534 107.489c12.763-12.953 12.763-33.768 0-46.628s-33.385-12.905-46.152 0l-372.919 376.632c-12.763 12.858-12.763 33.672 0 46.628l372.919 376.632c12.763 12.858 33.385 12.858 46.152 0 12.763-12.905 12.763-33.768 0-46.628l-340.103-353.343 340.103-353.296z" />
<glyph unicode="&#xb924;" glyph-name="highlight" horiz-adv-x="1101" d="M237.311 475.544c-29.226-67.336-58.74-134.671-87.966-202.007 72.779-72.779 145.56-145.56 218.339-218.339 65.043 30.373 130.373 61.032 195.416 91.404-108.597 109.742-217.193 219.486-325.79 328.942zM1061.097 668.381c0 0-0.573-11.175-7.737-21.777-10.601-15.759-193.124-204.013-444.415-458.742-110.029 110.603-219.772 221.204-329.801 331.807 141.835 142.694 283.382 285.388 425.217 428.082 3.725 3.152 11.462 9.456 22.922 11.462 19.771 3.725 35.243-6.877 38.109-8.883 165.044-139.256 282.236-244.128 290.545-260.46 5.731-11.175 5.158-21.49 5.158-21.49zM167.683 180.412c36.963-37.536 74.212-74.785 111.176-112.321-27.794-28.367-55.874-57.020-83.668-85.388-51.863 22.063-103.439 44.126-155.302 66.189 42.694 43.84 85.1 87.679 127.794 131.519zM405.793 29.123c218.339-0.286 436.391-0.286 654.731-0.573-30.373-30.946-60.746-61.891-91.118-92.551-218.052 0-435.818 0-653.872 0 30.086 30.946 60.172 62.178 90.258 93.124z" />
<glyph unicode="&#xb925;" glyph-name="bookmark" horiz-adv-x="768" d="M382.906 315.734l-377.501-379.734v1024h757.19v-1024l-379.689 379.734z" />
<glyph unicode="&#xb926;" glyph-name="apps" d="M766.503-64v257.497h257.497v-257.497h-257.497zM766.503 319.251v257.497h257.497v-257.497h-257.497zM383.251 702.503v257.497h257.497v-257.497h-257.497zM766.503 960h257.497v-257.497h-257.497v257.497zM383.251 319.251v257.497h257.497v-257.497h-257.497zM0 319.251v257.497h257.497v-257.497h-257.497zM0-64v257.497h257.497v-257.497h-257.497zM383.251-64v257.497h257.497v-257.497h-257.497zM0 702.503v257.497h257.497v-257.497h-257.497z" />
<glyph unicode="&#xb927;" glyph-name="resize-vertical" d="M139.439 472.42h745.123v-91.506h-745.123v91.506zM697.193 751.297l-185.192-185.192-185.192 185.192h139.438v187.37h91.506v-187.37h139.438zM326.809 102.037l185.192 185.192 185.192-185.192h-139.438v-187.37h-91.506v187.37h-139.438z" />
<glyph unicode="&#xb928;" glyph-name="resize-horizontal" d="M777.853 500.771v120.034l-171.321-171.144 170.472-171.886 0.813 118.514h246.183v104.517h-246.147zM458.999 6.179h106.037v883.642h-106.037v-883.642zM248.339 500.771h-248.339v-104.517h248.339l-1.378-118.514 170.508 171.886-169.129 171.179v-120.034z" />
<glyph unicode="&#xb929;" glyph-name="share" d="M820.405 217.048q62.645 0 106.014-44.574t43.369-104.809q0-62.645-44.574-107.219t-104.809-44.574-104.809 44.574-44.574 107.219q0 24.094 2.409 33.732l-363.821 212.028q-45.779-40.96-106.014-40.96-62.645 0-108.424 45.779t-45.779 108.424 45.779 108.424 108.424 45.779q60.235 0 106.014-40.96l361.412 209.619q-4.819 24.094-4.819 36.141 0 62.645 45.779 108.424t108.424 45.779 108.424-45.779 45.779-108.424-45.779-108.424-108.424-45.779q-57.826 0-106.014 43.369l-361.412-212.028q4.819-24.094 4.819-36.141t-4.819-36.141l366.231-212.028q43.369 38.551 101.195 38.551z" />
<glyph unicode="&#xb92a;" glyph-name="plus" d="M810.666 384.576h-256.569v-256.569h-84.188v256.569h-256.569v84.188h256.569v256.569h84.188v-256.569h256.569v-84.188z" />
<glyph unicode="&#xb92b;" glyph-name="caret-up" horiz-adv-x="585" d="M585.143 256c0-20-16.571-36.571-36.571-36.571h-512c-20 0-36.571 16.571-36.571 36.571 0 9.714 4 18.857 10.857 25.714l256 256c6.857 6.857 16 10.857 25.714 10.857s18.857-4 25.714-10.857l256-256c6.857-6.857 10.857-16 10.857-25.714z" />
<glyph unicode="&#xb92c;" glyph-name="caret-down" horiz-adv-x="585" d="M585.143 548.571c0-9.714-4-18.857-10.857-25.714l-256-256c-6.857-6.857-16-10.857-25.714-10.857s-18.857 4-25.714 10.857l-256 256c-6.857 6.857-10.857 16-10.857 25.714 0 20 16.571 36.571 36.571 36.571h512c20 0 36.571-16.571 36.571-36.571z" />
<glyph unicode="&#xb92d;" glyph-name="minus" d="M819.2 460.8c0-28.314-2.458-51.2-30.771-51.2h-552.858c-28.262 0-30.771 22.886-30.771 51.2s2.509 51.2 30.771 51.2h552.909c28.262 0 30.72-22.886 30.72-51.2z" />
<glyph unicode="&#xb92e;" glyph-name="user" d="M256 716.8c0 141.385 114.615 256 256 256s256-114.615 256-256v0-102.4c0-141.385-114.615-256-256-256s-256 114.615-256 256v0 102.4zM0 118.784c146.431 86.26 322.601 137.217 510.673 137.217 0.466 0 0.933 0 1.399-0.001h-0.072c186.368 0 361.472-49.664 512-137.216v-169.984h-1024v169.984z" />
<glyph unicode="&#xb92f;" glyph-name="price-tag" d="M976 960h-384c-26.4 0-63.274-15.274-81.942-33.942l-476.116-476.116c-18.668-18.668-18.668-49.214 0-67.882l412.118-412.118c18.668-18.668 49.214-18.668 67.882 0l476.118 476.118c18.666 18.666 33.94 55.54 33.94 81.94v384c0 26.4-21.6 48-48 48zM736 576c-53.020 0-96 42.98-96 96s42.98 96 96 96 96-42.98 96-96-42.98-96-96-96z" />
<glyph unicode="&#xb930;" glyph-name="heart" d="M755.188 896c-107.63 0-200.258-87.554-243.164-179-42.938 91.444-135.578 179-243.216 179-148.382 0-268.808-120.44-268.808-268.832 0-301.846 304.5-380.994 512.022-679.418 196.154 296.576 511.978 387.206 511.978 679.418 0 148.392-120.43 268.832-268.812 268.832z" />
<glyph unicode="&#xb931;" glyph-name="notice" d="M512 960c-282.782 0-512-229.218-512-512s229.218-512 512-512 512 229.218 512 512-229.218 512-512 512zM512 157.538c-32.65 0-59.077 26.466-59.077 59.077s26.427 59.077 59.077 59.077c32.61 0 59.077-26.466 59.077-59.077s-26.466-59.077-59.077-59.077zM571.077 413.538c0-32.61-26.466-59.077-59.077-59.077-32.65 0-59.077 26.466-59.077 59.077v275.692c0 32.65 26.427 59.077 59.077 59.077 32.61 0 59.077-26.427 59.077-59.077v-275.692z" />
<glyph unicode="&#xb932;" glyph-name="folder" d="M992 576h-960c-17.664 0-32-14.336-32-32l32-512c0-17.696 14.336-32 32-32h896c17.696 0 32 14.304 32 32l32 512c0 17.664-14.304 32-32 32zM992 768h-352l-64 96c0 17.664-14.304 32-32 32h-384c-17.664 0-32-14.336-32-32v-96h-96c-17.664 0-32-14.336-32-32v-64c0-17.664 14.336-32 32-32h960c17.696 0 32 14.336 32 32v64c0 17.664-14.304 32-32 32z" />
<glyph unicode="&#xb933;" glyph-name="vertical-dots" d="M512.051 573.44c-62.208 0-112.691-50.432-112.691-112.64s50.483-112.64 112.691-112.64c62.208 0 112.589 50.432 112.589 112.64s-50.381 112.64-112.589 112.64zM512.051 706.56c62.208 0 112.589 50.483 112.589 112.64s-50.381 112.64-112.589 112.64c-62.208 0-112.691-50.432-112.691-112.64s50.483-112.64 112.691-112.64zM512.051 215.040c-62.208 0-112.691-50.432-112.691-112.64s50.483-112.64 112.691-112.64c62.208 0 112.589 50.432 112.589 112.64s-50.381 112.64-112.589 112.64z" />
<glyph unicode="&#xb934;" glyph-name="list" d="M219.429 146.286c0-60.571-49.143-109.714-109.714-109.714s-109.714 49.143-109.714 109.714 49.143 109.714 109.714 109.714 109.714-49.143 109.714-109.714zM219.429 438.857c0-60.571-49.143-109.714-109.714-109.714s-109.714 49.143-109.714 109.714 49.143 109.714 109.714 109.714 109.714-49.143 109.714-109.714zM1024 201.143v-109.714c0-9.714-8.571-18.286-18.286-18.286h-694.857c-9.714 0-18.286 8.571-18.286 18.286v109.714c0 9.714 8.571 18.286 18.286 18.286h694.857c9.714 0 18.286-8.571 18.286-18.286zM219.429 731.428c0-60.571-49.143-109.714-109.714-109.714s-109.714 49.143-109.714 109.714 49.143 109.714 109.714 109.714 109.714-49.143 109.714-109.714zM1024 493.714v-109.714c0-9.714-8.571-18.286-18.286-18.286h-694.857c-9.714 0-18.286 8.571-18.286 18.286v109.714c0 9.714 8.571 18.286 18.286 18.286h694.857c9.714 0 18.286-8.571 18.286-18.286zM1024 786.286v-109.714c0-9.714-8.571-18.286-18.286-18.286h-694.857c-9.714 0-18.286 8.571-18.286 18.286v109.714c0 9.714 8.571 18.286 18.286 18.286h694.857c9.714 0 18.286-8.571 18.286-18.286z" />
<glyph unicode="&#xb935;" glyph-name="close" d="M512 32c-229.76 0-416 186.24-416 416s186.24 416 416 416 416-186.24 416-416-186.24-416-416-416zM702.752 569.312c7.808 7.808 7.808 20.512 0 28.32l-42.496 42.464c-7.808 7.808-20.512 7.808-28.32 0l-120.352-120.352-120.352 120.352c-7.808 7.808-20.512 7.808-28.32 0l-42.496-42.464c-7.808-7.808-7.808-20.512 0-28.32l120.384-120.384-120.384-120.32c-7.808-7.808-7.808-20.512 0-28.32l42.496-42.496c7.808-7.808 20.512-7.808 28.32 0l120.352 120.384 120.352-120.384c7.808-7.808 20.512-7.808 28.32 0l42.496 42.496c7.808 7.808 7.808 20.512 0 28.32l-120.384 120.32 120.384 120.384z" />
<glyph unicode="&#xb936;" glyph-name="delete" d="M496 848c-229.76 0-416-186.24-416-416s186.24-416 416-416c229.76 0 416 186.24 416 416s-186.24 416-416 416zM704 420c0-17.696-14.336-32-32-32h-352c-17.696 0-32 14.304-32 32v32c0 17.664 14.304 32 32 32h352c17.664 0 32-14.336 32-32v-32z" />
<glyph unicode="&#xb937;" glyph-name="file" d="M750.336 597.334h-153.003v153.003zM883.499 584.832l-298.667 298.667c-3.925 3.925-8.619 7.083-13.824 9.259s-10.795 3.243-16.341 3.243h-298.667c-35.328 0-67.413-14.379-90.496-37.504s-37.504-55.168-37.504-90.496v-682.667c0-35.328 14.379-67.413 37.504-90.496s55.168-37.504 90.496-37.504h512c35.328 0 67.413 14.379 90.496 37.504s37.504 55.168 37.504 90.496v469.333c0 11.776-4.779 22.443-12.501 30.165zM512 810.667v-256c0-23.552 19.115-42.667 42.667-42.667h256v-426.667c0-11.776-4.736-22.4-12.501-30.165s-18.389-12.501-30.165-12.501h-512c-11.776 0-22.4 4.736-30.165 12.501s-12.501 18.389-12.501 30.165v682.667c0 11.776 4.736 22.4 12.501 30.165s18.389 12.501 30.165 12.501z" />
<glyph unicode="&#xb938;" glyph-name="trash" horiz-adv-x="805" d="M292.571 164.571v402.286c0 10.286-8 18.286-18.286 18.286h-36.571c-10.286 0-18.286-8-18.286-18.286v-402.286c0-10.286 8-18.286 18.286-18.286h36.571c10.286 0 18.286 8 18.286 18.286zM438.857 164.571v402.286c0 10.286-8 18.286-18.286 18.286h-36.571c-10.286 0-18.286-8-18.286-18.286v-402.286c0-10.286 8-18.286 18.286-18.286h36.571c10.286 0 18.286 8 18.286 18.286zM585.143 164.571v402.286c0 10.286-8 18.286-18.286 18.286h-36.571c-10.286 0-18.286-8-18.286-18.286v-402.286c0-10.286 8-18.286 18.286-18.286h36.571c10.286 0 18.286 8 18.286 18.286zM274.286 731.428h256l-27.429 66.857c-1.714 2.286-6.857 5.714-9.714 6.286h-181.143c-3.429-0.571-8-4-9.714-6.286zM804.571 713.143v-36.571c0-10.286-8-18.286-18.286-18.286h-54.857v-541.714c0-62.857-41.143-116.571-91.429-116.571h-475.429c-50.286 0-91.429 51.429-91.429 114.286v544h-54.857c-10.286 0-18.286 8-18.286 18.286v36.571c0 10.286 8 18.286 18.286 18.286h176.571l40 95.429c11.429 28 45.714 50.857 76 50.857h182.857c30.286 0 64.571-22.857 76-50.857l40-95.429h176.571c10.286 0 18.286-8 18.286-18.286z" />
<glyph unicode="&#xb939;" glyph-name="download" d="M726 384.667h-128v170h-172v-170h-128l214-214zM826 510.667q82-6 140-67t58-145q0-88-63-151t-151-63h-554q-106 0-181 75t-75 181q0 94 67 169t161 85q42 78 118 126t166 48q108 0 201-76t113-182z" />
<glyph unicode="&#xb93a;" glyph-name="email" d="M854 596.667v86l-342-214-342 214v-86l342-212zM854 768.667q34 0 59-26t25-60v-512q0-34-25-60t-59-26h-684q-34 0-59 26t-25 60v512q0 34 25 60t59 26h684z" />
<glyph unicode="&#xb93b;" glyph-name="expand-horizontal" d="M1023.999 449.811l-184.288 186.482v-130.792h-268.747v423.919h-115.542v-423.919h-268.747v130.792l-186.676-186.482 185.754-187.29 0.923 129.096h268.747v-425.036h115.542v425.036h268.747l-1.501-129.096z" />
<glyph unicode="&#xb93c;" glyph-name="pencil" d="M965.536 718.656l-10.048-10.048-183.232 183.328 10.016 10.016c0 0 43.872 58.016 106.272 58.016 27.488 0 58.624-11.296 91.168-43.84 107.328-107.328-14.176-197.472-14.176-197.472zM895.328 648.416l-623.968-624.192-271.36-88.224 88.192 271.52v0.096h0.064l623.872 624.16 8.064-8.096zM88.32 24.352l135.584 39.008-92.608 98.624-42.976-137.632z" />
<glyph unicode="&#xb93d;" glyph-name="arrow-right" d="M519.094 814.928c-32.253-32.253-32.253-84.385 0-116.638l189.145-189.145h-625.751c-45.533 0-82.488-36.955-82.488-82.488s36.955-82.488 82.488-82.488h625.751l-189.145-189.145c-32.253-32.253-32.253-84.385 0-116.638 16.085-16.085 37.203-24.168 58.318-24.168s42.233 8.083 58.318 24.168l388.27 388.27-388.27 388.27c-32.253 32.253-84.385 32.253-116.638 0z" />
<glyph unicode="&#xb93e;" glyph-name="arrow-left" d="M941.514 509.142h-625.751l189.145 189.145c32.253 32.253 32.253 84.385 0 116.638s-84.385 32.253-116.638 0l-388.269-388.269 388.269-388.269c16.085-16.085 37.203-24.168 58.318-24.168s42.233 8.083 58.318 24.168c32.253 32.253 32.253 84.385 0 116.638l-189.145 189.145h625.751c45.533 0 82.488 36.955 82.488 82.488s-36.955 82.488-82.488 82.488z" />
<glyph unicode="&#xb93f;" glyph-name="expand" d="M960 960h64v-512h-64v512zM0 448h64v-512h-64v512zM320 256h704v-128h-704v-160l-224 224 224 224v-160zM704 640h-704v128h704v160l224-224-224-224z" />
<glyph unicode="&#xb940;" glyph-name="droplet, color, water" d="M864.626 486.838c-65.754 183.44-205.11 348.15-352.626 473.162-147.516-125.012-286.87-289.722-352.626-473.162-40.664-113.436-44.682-236.562 12.584-345.4 65.846-125.14 198.632-205.438 340.042-205.438s274.196 80.298 340.040 205.44c57.27 108.838 53.25 231.962 12.586 345.398zM738.764 201.044c-43.802-83.252-132.812-137.044-226.764-137.044-55.12 0-108.524 18.536-152.112 50.652 13.242-1.724 26.632-2.652 40.112-2.652 117.426 0 228.668 67.214 283.402 171.242 44.878 85.292 40.978 173.848 23.882 244.338 14.558-28.15 26.906-56.198 36.848-83.932 22.606-63.062 40.024-156.34-5.368-242.604z" />
<glyph unicode="&#xb941;" glyph-name="brush" d="M621.312 496.435c-130.97 96.205-343.040-59.904-390.758-270.541-36.762-162.304-207.002-155.648-204.595-177.357 2.355-21.709 382.618-56.474 519.987 57.498 128.307 106.496 218.982 284.877 75.366 390.4zM734.106 895.59l-172.186-263.987c56.422-9.165 186.112-96.512 210.995-159.181l225.075 217.395c-26.931 76.954-176.026 196.813-263.885 205.773z" />
<glyph unicode="&#xb942;" glyph-name="undo" d="M149.984 604.192l297.184-285.856v173.184c90.016 0 319.136-1.984 319.136-237.632 0-123.36-87.488-226.304-203.808-250.112 186.944 25.344 331.488 183.904 331.488 377.792 0 360.192-384.832 363.264-446.816 363.264v147.392l-297.184-288.032z" />
<glyph unicode="&#xb943;" glyph-name="erase" d="M870.298 758.784l-161.485 124.16c-44.646 34.355-109.312 25.907-143.718-18.688l-430.080-557.926c-34.355-44.595-25.958-109.158 18.688-143.514l161.434-124.16c44.646-34.355 109.312-25.907 143.718 18.688l430.131 557.926c34.355 44.595 25.958 109.158-18.688 143.514zM437.658 129.69l-27.494-34.867c-7.782-10.086-19.712-15.872-32.717-15.872-6.349 0-15.821 1.485-24.832 8.397l-161.434 124.16c-8.602 6.605-14.080 16.23-15.514 27.136s1.434 21.606 8.038 30.157l27.494 34.867c7.782 10.086 19.712 15.923 32.768 15.923 6.349 0 15.821-1.485 24.832-8.397l161.485-124.16c8.602-6.605 14.080-16.23 15.514-27.136 1.331-10.906-1.536-21.606-8.141-30.208z" />
<glyph unicode="&#xb944;" glyph-name="pen" d="M212 382.592l-104.416-317.952 139.552 140.064c-9.6 24.224-7.232 65.6 12.384 85.184 26.272 26.304 69.536 25.696 95.808-0.608 26.304-26.304 27.712-70.336 1.44-96.64-20-20-63.936-21.152-88.448-10.784l-138.336-138.72 310.432 109.056 113.056 203.648-137.728 135.872-203.744-109.12zM735.392 852.832c0 0-192.352-192.32-222.016-222.016-29.728-29.696-45.248-141.408-45.248-141.408l86.24-86.272c0 0 108.896 15.552 140 46.688 31.136 31.104 222.016 222.016 222.016 222.016l-180.992 180.992z" />
<glyph unicode="&#xb945;" glyph-name="curve2" d="M35.328 392.653l69.786-17.306 52.531 82.483-99.84 24.678c-24.986 6.195-50.227-8.909-56.422-33.792-6.195-24.73 8.96-49.818 33.946-56.064zM946.227 379.29l-228.506-205.619-268.646 207.923c-5.12 3.891-11.008 6.81-17.306 8.294l-35.738 8.909-52.582-82.483 56.32-13.978 291.686-225.69c8.499-6.502 18.534-9.677 28.621-9.677 11.213 0 22.426 3.994 31.181 11.878l257.434 231.782c19.046 17.101 20.531 46.387 3.277 65.382-17.254 18.944-46.643 20.48-65.741 3.277zM444.621 605.184l250.214-160.205c21.146-13.517 49.203-7.885 63.488 12.595l257.382 370.79c14.643 21.094 9.37 50.022-11.827 64.512-21.197 14.592-50.125 9.318-64.768-11.776l-231.834-333.875-251.699 161.126c-10.445 6.707-23.091 8.909-35.226 6.298-12.083-2.714-22.63-10.086-29.235-20.48l-383.846-602.47c-13.824-21.606-7.373-50.33 14.336-64 7.68-4.915 16.333-7.219 24.883-7.219 15.411 0 30.515 7.629 39.322 21.504l358.81 563.2z" />
<glyph unicode="&#xb946;" glyph-name="curve1" d="M938 642.667l-130-146q74-118 88-262h-86q-12 102-62 194l-172-194-170 172-256-256-64 64 320 320 170-172 122 140q-118 138-288 138-146 0-264-104l-60 60q144 128 324 128 204 0 346-158l122 136z" />
<glyph unicode="&#xb947;" glyph-name="smooth1" horiz-adv-x="1462" d="M1120.895-64l-753.136 825.806-268.662-308.301-99.097 88.086 365.557 418.409 746.529-816.998 244.439 323.716 105.703-79.277z" />
<glyph unicode="&#xb948;" glyph-name="smooth2" horiz-adv-x="1604" d="M834.005 271.576c69.089-88.829 148.048-192.463 234.41-264.019 56.752-46.882 113.504-71.557 170.255-71.557 14.805 0 29.61 2.467 46.882 4.935 145.581 32.077 229.475 217.137 283.759 338.043 9.87 24.675 19.74 44.414 27.142 59.219 19.74 39.48 4.935 88.829-34.545 108.569s-88.829 4.935-108.569-34.545c-9.87-19.74-19.74-41.947-32.077-66.622-37.012-81.427-106.101-231.942-172.723-246.747-19.74-4.935-46.882 4.935-76.492 32.077-74.024 61.687-143.113 152.983-209.735 239.345l-412.067 500.896c-71.557 71.557-148.048 101.166-222.072 86.361-148.048-27.142-231.942-207.267-291.161-340.511-9.87-22.207-19.74-41.947-27.142-59.219-19.74-39.48-4.935-88.829 34.545-108.569s88.829-4.935 108.569 34.545c9.87 17.272 19.74 39.48 29.61 64.154 34.545 76.492 108.569 236.877 175.19 249.214 27.142 4.935 59.219-19.74 81.427-41.947l394.795-483.624z" />
<glyph unicode="&#xb949;" glyph-name="smooth3" d="M763.858 164.271c-135.689 0-218.283 125.365-272.854 207.959v0c-54.571 82.594-159.288 238.931-253.68 228.607-72.269-8.849-112.091-94.393-144.539-162.238-2.95-7.374-5.9-13.274-8.849-20.649-10.324-22.123-36.872-30.972-58.995-20.649s-30.972 36.872-20.649 58.995c2.95 5.9 5.9 13.274 8.849 19.173 35.397 79.644 91.443 199.11 213.858 212.383 148.963 17.699 268.429-162.238 339.223-266.954v0c45.722-70.794 110.616-168.137 197.634-168.137 0 0 1.475 0 1.475 0 94.393 1.475 153.388 110.616 172.561 174.036 7.374 23.598 32.448 36.872 54.571 29.498 23.598-7.374 36.872-32.448 29.498-54.571-32.448-107.667-119.466-234.506-255.155-237.456 0 0-1.475 0-2.95 0z" />
<glyph unicode="&#xb94a;" glyph-name="smooth4" d="M769.217 269.121c-40.748 0-81.499 9.055-120.74 28.674-66.405 31.692-111.684 76.971-152.429 117.722-40.748 42.257-76.971 76.971-131.303 95.082-123.758 40.748-175.068 0-262.606-67.915-7.545-6.036-15.090-12.073-22.636-16.6-21.128-16.6-52.822-12.073-69.425 9.055s-12.073 52.822 9.055 69.425c7.545 6.036 15.090 10.563 21.128 16.6 92.063 72.443 179.596 141.866 353.157 84.517 76.971-25.656 123.758-72.443 170.54-119.23 37.73-37.73 73.953-73.953 125.267-98.101 63.387-30.182 114.702-18.108 147.903-3.018 45.276 21.128 79.989 63.387 90.554 108.666 6.036 25.656 33.202 42.257 58.859 36.22s42.257-33.202 36.22-58.859c-18.108-75.461-70.933-140.358-143.375-175.068-34.71-18.108-72.443-27.164-110.176-27.164z" />
<glyph unicode="&#xb94b;" glyph-name="smooth5" d="M773.157 333.202c-51.624 0-107.803 10.628-170.056 31.886-18.22 6.073-36.441 13.665-54.661 19.739-157.909 57.697-321.892 116.913-464.617 15.184-22.775-15.184-56.179-10.628-74.399 13.665-16.702 24.294-10.628 57.697 13.665 74.399 188.276 133.615 396.291 59.216 561.792-1.518 18.22-6.073 36.441-13.665 54.661-19.739 179.166-62.253 249.011 0 286.969 53.143 16.702 24.294 50.106 30.367 74.399 13.665s30.367-50.106 13.665-74.399c-60.734-83.51-141.207-126.024-241.419-126.024z" />
<glyph unicode="&#xb94c;" glyph-name="file-fill" horiz-adv-x="878" d="M585.143 646.096v269.714c8-5.143 14.857-10.286 20.571-16l233.143-233.143c5.714-5.714 10.857-12.571 16-20.571h-269.714zM512 627.81c0-30.286 24.571-54.857 54.857-54.857h310.857v-603.429c0-30.286-24.571-54.857-54.857-54.857h-768c-30.286 0-54.857 24.571-54.857 54.857v914.286c0 30.286 24.571 54.857 54.857 54.857h457.143v-310.857z" />
<glyph unicode="&#xb94d;" glyph-name="freehand" d="M906.214 743.638l-8.902-8.9-162.294 162.38 8.874 8.874c0 0 38.86 51.384 94.126 51.384 24.346 0 51.924-10.006 80.752-38.832 95.062-95.062-12.556-174.906-12.556-174.906zM844.026 681.424l-552.67-552.87-240.356-78.144 78.118 240.496v0.084h0.054l552.588 552.842 7.138-7.168 155.128-155.24zM129.228 128.668l120.094 34.548-82.026 87.358-38.068-121.906zM994.344 238.768c-4.932 7.942-12.662 13.49-21.762 15.618-3.052 0.714-75.714 17.564-162.142 24.084-22.090 1.666-43.304 2.51-63.050 2.51-88.852 0-154-16.942-193.63-50.358-32.362-27.286-48.070-65.592-45.434-110.79l-0.040-0.47 0.164-1.228c0.266-4.426 1.16-38.582-31.534-66.78-24.31-20.968-61.434-34.128-110.34-39.116-14.454-1.474-30.084-2.222-46.456-2.222-43.526 0-94.092 5.256-150.296 15.624l-1.302 0.24-101.12-49.724 10.986-2.516c91.97-21.062 182.356-33.636 241.78-33.636 90.642 0 159.342 20.136 204.194 59.85 56.414 49.954 54.746 112.222 53.844 124.124-1.342 23.212 5.224 40.090 20.664 53.116 26.252 22.146 77.794 33.852 149.054 33.852 17.73 0 36.732-0.746 56.478-2.218 80.76-6.022 151.55-22.338 152.254-22.502 2.622-0.612 5.306-0.922 7.978-0.922 16.332 0 30.338 11.118 34.060 27.036 2.124 9.1 0.582 18.488-4.35 26.428z" />
<glyph unicode="&#xe900;" glyph-name="star-half" d="M1024 562.95l-353.78 51.408-158.22 320.582-158.216-320.582-353.784-51.408 256-249.538-60.432-352.352 316.432 166.358 316.432-166.358-60.434 352.352 256.002 249.538zM512 206.502l-0.942-0.496 0.942 570.768 111.736-226.396 249.836-36.304-180.788-176.222 42.678-248.83-223.462 117.48z" />
<glyph unicode="&#xe901;" glyph-name="star-full" d="M1024 562.95l-353.78 51.408-158.22 320.582-158.216-320.582-353.784-51.408 256-249.538-60.432-352.352 316.432 166.358 316.432-166.358-60.434 352.352 256.002 249.538z" />
<glyph unicode="&#xe902;" glyph-name="star-empty" d="M1024 562.95l-353.78 51.408-158.22 320.582-158.216-320.582-353.784-51.408 256-249.538-60.432-352.352 316.432 166.358 316.432-166.358-60.434 352.352 256.002 249.538zM512 206.502l-223.462-117.48 42.676 248.83-180.786 176.222 249.84 36.304 111.732 226.396 111.736-226.396 249.836-36.304-180.788-176.222 42.678-248.83-223.462 117.48z" />
<glyph unicode="&#xe93a;" glyph-name="cart" d="M384 32c0-53.019-42.981-96-96-96s-96 42.981-96 96c0 53.019 42.981 96 96 96s96-42.981 96-96zM1024 32c0-53.019-42.981-96-96-96s-96 42.981-96 96c0 53.019 42.981 96 96 96s96-42.981 96-96zM1024 448v384h-768c0 35.346-28.654 64-64 64h-192v-64h128l48.074-412.054c-29.294-23.458-48.074-59.5-48.074-99.946 0-70.696 57.308-128 128-128h768v64h-768c-35.346 0-64 28.654-64 64 0 0.218 0.014 0.436 0.016 0.656l831.984 127.344z" />
</font>
</defs>
</svg>
